<?xml version="1.0" standalone="no"?>
<!DOCTYPE svg PUBLIC "-//W3C//DTD SVG 1.1//EN" "http://www.w3.org/Graphics/SVG/1.1/DTD/svg11.dtd">
<svg xmlns="http://www.w3.org/2000/svg">
<defs >
<font id="AbrilFatface" horiz-adv-x="458" ><font-face
    font-family="Abril Fatface"
    units-per-em="1000"
    panose-1="2 0 5 3 0 0 0 2 0 3"
    ascent="1058"
    descent="-291"
    alphabetic="0" />
<glyph unicode=" " glyph-name="space" horiz-adv-x="180" />
<glyph unicode="!" glyph-name="exclam" horiz-adv-x="377" d="M178 178V264Q178 350 146 468T113 630T136 692T194 711Q270 711 270 630Q270 583 235 466T200 263V178H178ZM148 -10T130 11T111 65T131 119T186 141T242 123T263 68T243 11T186 -10Z" />
<glyph unicode="&quot;" glyph-name="quotedbl" horiz-adv-x="334" d="M227 481L198 747Q238 767 263 767Q297 767 297 730Q297 707 288 664L248 481H227ZM79 481L50 747Q90 767 115 767Q149 767 149 730Q149 707 140 664L100 481H79Z" />
<glyph unicode="#" glyph-name="numbersign" horiz-adv-x="608" d="M163 0H138L165 169H45L61 261H178L204 407H84L99 500H216L237 640H263L241 500H413L434 640H460L438 500H566L552 407H426L402 261H528L514 169H390L362 0H337L365 169H191L163 0ZM401 407H229L203
261H377L401 407Z" />
<glyph unicode="$" glyph-name="dollar" horiz-adv-x="565" d="M258 691L281 692Q302 692 320 689V770H348V685Q367 681 399 672T445 662T469 682H479L486 485H471Q408 606 348 646V440Q430 413 477 365T525 224T478 70T348 -6V-71H320V-9Q314 -10 297 -10T258
-7V-71H230V-4L111 19Q95 19 84 -10H71L62 222H78Q140 87 230 35V260Q150 288 108 337T65 471T108 614T230 687V770H258V691ZM312 11H320V230Q298 239 259 251H258V22Q285 11 312 11ZM258 467Q298 454 320 449V661Q295 672 278 672T258 671V467ZM430 113Q430 180
348 219V15Q384 24 407 49T430 113ZM155 573Q155 510 230 478V667Q196 657 176 632T155 573Z" />
<glyph unicode="%" glyph-name="percent" horiz-adv-x="768" d="M488 -10T444 36T399 156T447 279T574 328T698 285T743 163T694 37T567 -10ZM524 246T523 225T522 157T523 90T528 47T543 15T572 6T600 15T615 49Q621 86 621 146T620 227T615 272T600 303T572
312T544 304T529 271ZM154 0L575 700H615L195 0H154ZM119 373T75 419T30 539T78 662T205 711T329 668T374 546T325 420T198 373ZM155 629T154 608T153 540T154 473T159 430T174 398T203 389T231 398T246 432Q252 470 252 529T251 610T246 655T231 686T203 695T175
687T160 654Z" />
<glyph unicode="&amp;" glyph-name="ampersand" horiz-adv-x="822" d="M515 -226Q564 -226 590 -179T617 -63T564 77Q488 -10 355 -10T144 35T65 177Q65 244 101 285T222 345Q134 425 134 519T200 662T366 711T514 675T564 578Q564 472 403 416Q423 403 476 370Q587
298 633 254Q648 325 650 400H571V420H745V400H675Q673 306 656 231Q699 183 721 139T743 28Q743 -80 667 -165T494 -250Q429 -250 393 -223T357 -154T380 -89T440 -65Q520 -65 520 -137Q520 -152 514 -173H479Q461 -226 515 -226ZM379 16Q485 16 547 98Q501 146
418 202Q275 296 236 330Q221 298 221 200T260 59T379 16ZM323 690T296 667T269 592T293 508T385 428Q427 450 437 481T448 572Q448 690 361 690Q323 690 296 667Z" />
<glyph unicode="&apos;" glyph-name="quotesingle" horiz-adv-x="186" d="M79 481L50 747Q90 767 115 767Q149 767 149 730Q149 707 140 664L100 481H79Z" />
<glyph unicode="(" glyph-name="parenleft" horiz-adv-x="351" d="M90 61T70 141T50 321T85 526T195 702T371 778V758Q314 756 290 718Q263 677 258 625Q251 554 251 446V159Q251 -31 282 -84Q311 -135 371 -137V-158Q292 -157 229 -116T128 -7Z" />
<glyph unicode=")" glyph-name="parenright" horiz-adv-x="351" d="M261 558T281 478T301 298T266 93T156 -83T-20 -159V-139Q37 -137 61 -100Q88 -58 93 -6Q100 65 100 173V460Q100 650 69 704Q40 754 -20 756V777Q59 776 122 735T223 626Z" />
<glyph unicode="*" glyph-name="asterisk" horiz-adv-x="529" d="M465 608L282 575L414 540Q430 536 439 532T458 518T468 492Q468 445 400 418L271 561L316 373Q283 347 256 347T215 358T201 389T210 436L253 562L129 418Q102 428 82 447T61 490T76 524T123 542L242
575L64 608Q60 624 60 646T72 689T109 710Q125 710 136 702T164 677L255 590L211 765Q244 791 271 791T312 780T326 749T313 693L274 589L363 678Q395 710 419 710T456 692T469 649T465 608Z" />
<glyph unicode="+" glyph-name="plus" horiz-adv-x="530" d="M492 301H281V92H243V301H38V334H243V530H281V334H492V301Z" />
<glyph unicode="," glyph-name="comma" horiz-adv-x="262" d="M86 -156L74 -141Q136 -88 155 -59T174 6T143 46L95 3Q72 11 54 31T35 84T58 140T123 163T191 131T217 46T186 -56T86 -156Z" />
<glyph unicode="-" glyph-name="hyphen" horiz-adv-x="352" d="M50 278V308H302V278H50Z" />
<glyph unicode="." glyph-name="period" horiz-adv-x="265" d="M88 -10T67 15T45 77T67 139T131 164T196 143T220 80T198 14T132 -10Z" />
<glyph unicode="/" glyph-name="slash" horiz-adv-x="351" d="M8 -97L303 795H343L49 -97H8Z" />
<glyph unicode="0" glyph-name="zero" horiz-adv-x="664" d="M181 -10T106 88T30 362T111 624T332 711T553 625T634 351T553 77T327 -10ZM235 388V299Q235 202 236 162T247 79T276 24T323 11T363 14T387 26T405 45T416 75T424 112T428 162Q430 226 430 291V379Q430
575 416 632T333 690T250 631T235 388Z" />
<glyph unicode="1" glyph-name="one" horiz-adv-x="425" d="M127 674L17 660L15 680L241 711H322V19H400V0H22V19H127V674Z" />
<glyph unicode="2" glyph-name="two" horiz-adv-x="552" d="M35 625T93 668T267 711T445 668T508 539Q508 511 503 489T481 442T447 398T390 348Q330 300 264 253T187 197L126 153H366Q435 153 464 183T505 277H522L512 0H42V116L143 209Q246 303 289 376T332
538T313 659T249 692T186 669T168 625T174 588H204Q212 567 212 538T187 487T121 465T58 491T35 558Q35 625 93 668Z" />
<glyph unicode="3" glyph-name="three" horiz-adv-x="573" d="M42 624T102 667T280 711Q508 711 508 552Q508 487 455 445T301 385V383Q425 374 484 325T543 198Q543 102 466 46T250 -10Q196 -10 150 2T67 49T30 134T53 210T118 237T183 216T207 165T199 114H168Q162
98 162 81Q162 10 246 10Q305 10 326 55T348 185T328 308T267 367Q231 359 180 354L177 376Q265 385 292 418T320 535T304 656T248 693T193 670T176 625T182 588H211Q219 567 219 538T194 487T128 465T65 491T42 558Q42 624 102 667Z" />
<glyph unicode="4" glyph-name="four" horiz-adv-x="603" d="M182 0V19H276V179H5V198L287 700H460V203H559V290H578V105H559V179H460V19H529V0H182ZM37 203H276V624L37 203Z" />
<glyph unicode="5" glyph-name="five" horiz-adv-x="540" d="M308 329T292 367T217 405T90 362L73 370V689L89 701Q150 692 274 680T417 667T445 676T460 709L475 707Q460 554 436 525Q423 510 403 510T319 527L101 584L96 390Q169 429 247 429T377 412T457 363Q510
304 510 220Q510 113 434 52T223 -10Q151 -10 90 20Q57 37 37 68T16 141T39 210T104 237T169 217T193 164T184 108H151Q145 92 145 71T162 30T212 10T262 20T288 46T302 93Q308 139 308 234Z" />
<glyph unicode="6" glyph-name="six" horiz-adv-x="616" d="M34 308Q34 501 120 606T358 711Q461 711 516 670T571 561Q571 523 547 496T482 468T418 489T394 540T402 592H434Q440 608 440 628Q440 691 369 691T265 618T231 364Q283 445 382 445T538 392T595 231T520
57T319 -10Q34 -10 34 308ZM297 412T274 387T242 327T233 237T233 160T236 109T244 66T258 37Q274 11 309 11T361 24T387 70Q399 117 399 187T399 280T396 328T390 367T378 392Q365 412 331 412Z" />
<glyph unicode="7" glyph-name="seven" horiz-adv-x="510" d="M181 -10T150 19T119 92T148 188T277 356L442 547H186Q115 547 93 530T57 446H41L52 700H500V592L389 398Q315 267 295 211T274 103T304 9L297 -3Q269 -10 235 -10Q181 -10 150 19Z" />
<glyph unicode="8" glyph-name="eight" horiz-adv-x="611" d="M249 368Q152 373 98 416T44 529Q44 613 111 662T307 711T502 665T568 542T517 420T370 368V365Q586 347 586 182Q586 86 519 38T308 -10Q25 -10 25 181Q25 350 249 365V368ZM395 275T377 315T308
355T238 315T220 182T237 50T308 11T378 50T395 182ZM264 690T252 655T239 559T240 478T244 435T256 402Q273 378 311 378Q345 378 362 402Q375 421 376 458T377 557T365 654T308 690Z" />
<glyph unicode="9" glyph-name="nine" horiz-adv-x="616" d="M584 393Q584 199 500 95T265 -10Q160 -10 101 30T41 134Q41 174 65 203T130 233T194 212T218 161T210 109H180Q173 94 173 71T194 29T258 10Q325 10 355 83T387 337Q335 256 229 256Q139 256 81 314T23
473Q23 593 102 652T306 711Q584 711 584 393ZM321 289T344 314T376 374T385 464T385 541T382 592T375 635T362 664Q347 690 307 690Q262 690 240 654Q223 625 220 554Q219 529 219 487T219 421T222 373T228 334T240 309Q253 289 287 289Z" />
<glyph unicode=":" glyph-name="colon" horiz-adv-x="265" d="M88 321T67 346T45 408T67 470T131 495T196 474T220 411T198 345T132 321ZM88 -10T67 15T45 77T67 139T131 164T196 143T220 80T198 14T132 -10Z" />
<glyph unicode=";" glyph-name="semicolon" horiz-adv-x="262" d="M86 -156L74 -141Q136 -88 155 -59T174 6T143 46L95 3Q72 11 54 31T35 84T58 140T123 163T191 131T217 46T186 -56T86 -156ZM79 321T58 346T36 408T58 470T122 495T187 474T211 411T189 345T123 321Z" />
<glyph unicode="&lt;" glyph-name="less" horiz-adv-x="530" d="M491 86L39 280V306L491 497V462L93 294L491 123V86Z" />
<glyph unicode="=" glyph-name="equal" horiz-adv-x="530" d="M492 190H38V223H492V190ZM38 379H492V346H38V379Z" />
<glyph unicode="&gt;" glyph-name="greater" horiz-adv-x="530" d="M39 497L491 303V277L39 86V121L437 291L39 460V497Z" />
<glyph unicode="?" glyph-name="question" horiz-adv-x="580" d="M58 623T117 667T285 711T454 669T514 545Q514 491 488 450T414 365L263 231V173H238V383Q238 400 249 411L311 474Q340 503 351 528T362 595Q362 692 272 692Q229 692 209 669T189 625T195 588H227Q235
567 235 538T210 487T144 465T81 491T58 558Q58 623 117 667ZM211 -10T193 11T174 65T194 119T249 141T305 123T326 68T306 11T249 -10Z" />
<glyph unicode="@" glyph-name="at" horiz-adv-x="879" d="M433 395Q481 395 520 358L537 388H646L614 206Q602 134 602 97T613 41T659 22Q704 22 743 80T783 237Q783 383 698 466T462 550T204 448T98 174Q98 86 129 20T214 -85Q319 -159 459 -159T697 -76L713
-94Q669 -135 601 -159T458 -183T315 -162T190 -99T102 12T70 170Q70 345 180 458T467 572Q620 572 714 486T809 244Q809 119 757 56T605 -7T477 65Q451 -5 380 -5T271 39T233 147Q233 268 295 331T433 395ZM481 130L515 344Q486 374 453 374T399 343T367 264Q349
178 349 97T400 16Q429 16 451 48T481 130Z" />
<glyph unicode="A" glyph-name="A" horiz-adv-x="694" d="M432 19L359 235H161L84 19H159V0H6V19H53L308 706H390L642 19H688V0H361V19H432ZM264 519L170 257H351L264 519Z" />
<glyph unicode="B" glyph-name="B" horiz-adv-x="659" d="M21 700H320Q459 700 528 663T598 536Q598 399 433 372V370Q633 345 633 196Q633 87 551 44T315 0H21V19H86V681H21V700ZM281 354V19H328Q383 19 405 57T427 169V222Q427 288 400 321T304 354H281ZM281
681V373H307Q359 373 379 404T400 501V548Q400 622 382 651T313 681H281Z" />
<glyph unicode="C" glyph-name="C" horiz-adv-x="690" d="M400 691Q245 691 245 392V313Q245 171 286 91T407 10Q517 10 609 224H627L620 1H609Q603 12 598 16T584 21T511 6T383 -10Q220 -10 131 78T41 342T134 615T386 711Q447 711 505 696T574 680T589 684T600
700H611L619 483H601Q556 584 509 637T400 691Z" />
<glyph unicode="D" glyph-name="D" horiz-adv-x="755" d="M714 362Q714 156 598 75Q491 0 304 0H21V19H87V681H21V700H330Q522 700 618 622T714 362ZM282 19H320Q421 19 464 90T508 330V388Q508 613 422 659Q381 681 306 681H282V19Z" />
<glyph unicode="E" glyph-name="E" horiz-adv-x="624" d="M21 700H541L551 502H533Q491 603 445 640T310 678H275V369H309Q356 369 388 404T433 500H448V204H431Q413 279 383 311T299 343H275V22H313Q405 22 469 77T558 218H578L570 0H21V22H80V678H21V700Z" />
<glyph unicode="F" glyph-name="F" horiz-adv-x="592" d="M21 700H541L551 492H533Q496 600 448 639T303 678H275V353H320Q368 353 400 388T444 484H459V188H442Q426 263 398 295T320 327H275V22H399V0H21V22H80V678H21V700Z" />
<glyph unicode="G" glyph-name="G" horiz-adv-x="723" d="M390 10Q439 10 452 28T466 89V283H402V305H690V283H651V1H636Q618 26 585 26Q571 26 502 8T383 -10Q220 -10 131 78T41 342T134 615T386 711Q447 711 508 696T580 680T595 684T606 700H617L625 483H607Q558
580 509 635T398 691Q245 691 245 392V313Q245 163 282 87T390 10Z" />
<glyph unicode="H" glyph-name="H" horiz-adv-x="749" d="M21 700H333V681H275V371H474V681H415V700H728V681H669V19H728V0H415V19H474V345H275V19H333V0H21V19H80V681H21V700Z" />
<glyph unicode="I" glyph-name="I" horiz-adv-x="355" d="M25 700H330V681H275V19H330V0H25V19H80V681H25V700Z" />
<glyph unicode="J" glyph-name="J" horiz-adv-x="517" d="M176 700H501V681H446V249Q446 114 385 53T202 -9Q121 -9 74 22T26 109Q26 152 50 176T115 201T177 180T198 130T187 70H148Q139 55 139 42T152 19T188 9Q228 9 239 40T251 177V681H176V700Z" />
<glyph unicode="K" glyph-name="K" horiz-adv-x="734" d="M25 700H330V681H275V365L283 367L565 681H486V700H661V681H601L429 489L669 19H723V0H402V19H449L284 338L275 336V19H330V0H25V19H80V681H25V700Z" />
<glyph unicode="L" glyph-name="L" horiz-adv-x="596" d="M21 700H381V678H275V22H311Q396 22 446 74T549 234H570L551 0H21V22H80V678H21V700Z" />
<glyph unicode="M" glyph-name="M" horiz-adv-x="840" d="M548 700H815V681H760V19H815V0H510V19H565V644H561L411 0H286L110 647H106V19H161V0H25V19H80V681H25V700H295L428 185L548 700Z" />
<glyph unicode="N" glyph-name="N" horiz-adv-x="670" d="M590 681V0H450L107 647V19H162V0H25V19H80V681H25V700H301L563 198V681H508V700H645V681H590Z" />
<glyph unicode="O" glyph-name="O" horiz-adv-x="748" d="M501 309V383Q501 566 483 614Q463 669 426 682Q405 690 375 690T324 682T288 654T266 612T252 550Q246 492 246 379V307Q246 185 255 134T279 60Q310 11 375 11Q454 11 477 77T501 309ZM206 -10T124 80T41
342T129 612T380 711T624 618T707 352T624 85T373 -10Z" />
<glyph unicode="P" glyph-name="P" horiz-adv-x="634" d="M15 700H309Q460 700 534 657T608 501Q608 377 518 330Q434 287 283 287H275V19H400V0H15V19H80V681H15V700ZM275 681V306H296Q356 306 379 347T402 480V528Q402 613 381 647T302 681H275Z" />
<glyph unicode="Q" glyph-name="Q" horiz-adv-x="748" d="M41 339Q41 514 129 612T380 711T624 618T707 352Q707 25 423 -1V-8Q480 -14 507 -39T549 -105T574 -162T607 -177Q645 -177 652 -97L674 -99Q672 -165 633 -200T525 -235T417 -201T359 -99Q346 -58 337
-46T314 -34Q286 -34 240 -75L226 -59Q266 -19 317 -10V-4Q181 10 111 99T41 339ZM501 309V383Q501 566 483 614Q463 669 426 682Q405 690 375 690T324 682T288 654T266 612T252 550Q246 492 246 379V307Q246 185 255 134T279 60Q310 11 375 11Q454 11 477 77T501
309Z" />
<glyph unicode="R" glyph-name="R" horiz-adv-x="716" d="M328 354H275V19H340V0H15V19H80V681H15V700H317Q447 700 501 687T578 654Q626 615 626 530T584 409T456 365V362Q537 351 569 314T601 190V137Q601 85 606 67T630 49T658 65T678 135L695 133Q684 48 657
19T547 -10T431 28T396 173V246Q396 302 382 328T328 354ZM275 681V373H307Q364 373 391 408T419 522V551Q419 630 393 655T308 681H275Z" />
<glyph unicode="S" glyph-name="S" horiz-adv-x="600" d="M325 11Q375 11 413 38T452 119T411 203T293 253T182 291T116 333Q54 385 54 494Q54 583 117 647T291 711Q344 711 401 696T473 680T498 700H509L516 498H500Q452 585 400 637T286 690T190 662T156 586T196
513T296 471T373 449T419 433T464 411T501 382T532 343Q559 295 559 229Q559 121 492 56T314 -10Q257 -10 184 5T102 20Q88 20 75 -10H61L51 228H68Q112 141 180 76T325 11Z" />
<glyph unicode="T" glyph-name="T" horiz-adv-x="683" d="M636 700L646 449H627Q583 582 549 630T451 679H439V21H524V0H159V21H244V679H231Q167 679 132 629T55 449H36L46 700H636Z" />
<glyph unicode="U" glyph-name="U" horiz-adv-x="683" d="M271 121T302 72T416 23T542 74T586 229V681H521V700H667V681H612V236Q612 112 557 51T363 -10T150 48T76 247V681H21V700H336V681H271V213Q271 121 302 72Z" />
<glyph unicode="V" glyph-name="V" horiz-adv-x="685" d="M430 181L604 681H526V700H679V681H632L391 -10H307L52 681H6V700H333V681H262L430 181Z" />
<glyph unicode="W" glyph-name="W" horiz-adv-x="1015" d="M424 202L507 490L447 681H390V700H700V681H641L790 208L910 681H809V700H1009V681H943L759 -10H670L522 442L392 -10H305L53 681H6V700H331V681H261L424 202Z" />
<glyph unicode="X" glyph-name="X" horiz-adv-x="711" d="M700 0H358V19H424L275 283L116 19H222V0H15V19H82L257 313L48 680H-6V700H331V680H263L398 438L549 680H445V700H650V680H584L415 410L642 19H700V0Z" />
<glyph unicode="Y" glyph-name="Y" horiz-adv-x="641" d="M397 371L539 684H438V700H635V684H569L418 350V19H479V0H162V19H223V331L53 684H6V700H326V684H261L397 371Z" />
<glyph unicode="Z" glyph-name="Z" horiz-adv-x="612" d="M559 700V678L263 23H297Q387 23 455 80T554 244H572L560 0H48V19L347 678H306Q217 678 171 639T67 479H49L64 700H559Z" />
<glyph unicode="[" glyph-name="bracketleft" horiz-adv-x="329" d="M349 -142V-160H61V781H349V763H304Q267 763 257 754T246 711V-89Q246 -126 255 -134T303 -142H349Z" />
<glyph unicode="\" glyph-name="backslash" horiz-adv-x="351" d="M49 795L344 -97H302L8 795H49Z" />
<glyph unicode="]" glyph-name="bracketright" horiz-adv-x="328" d="M-20 -160V-142H26Q64 -142 73 -134T83 -89V711Q83 745 73 754T25 763H-20V781H268V-160H-20Z" />
<glyph unicode="^" glyph-name="asciicircum" horiz-adv-x="560" d="M500 300L463 285L273 621L98 284L60 300L249 664H298L500 300Z" />
<glyph unicode="_" glyph-name="underscore" horiz-adv-x="500" d="M500 -106H0V-69H500V-106Z" />
<glyph unicode="`" glyph-name="grave" horiz-adv-x="500" d="M246 723L309 532L298 525L164 636Q135 662 135 686T151 725T199 733L246 723Z" />
<glyph unicode="a" glyph-name="a" horiz-adv-x="549" d="M250 235H279V312Q279 407 269 439T228 472Q210 472 196 463T181 437T187 403H212Q220 382 220 353T195 302T132 280Q46 280 46 363Q46 486 255 486Q374 486 419 446T465 297V94Q465 42 494 42Q528 42
534 145L549 144Q545 56 516 23T421 -10Q301 -10 283 64Q270 26 244 8T168 -10Q20 -10 20 111Q20 182 76 208T250 235ZM210 60T215 45T236 30T265 55T279 126V219H272Q210 219 210 128V112Q210 60 215 45Z" />
<glyph unicode="b" glyph-name="b" horiz-adv-x="588" d="M375 372T365 407T326 443T274 407T251 308V122Q251 79 268 49T318 19T363 63T375 217V269Q375 372 365 407ZM251 750V400Q289 486 381 486Q568 486 568 237Q568 110 517 50T362 -10Q310 -10 283 6T245
59L238 0H10V18H65V732H10V750H251Z" />
<glyph unicode="c" glyph-name="c" horiz-adv-x="483" d="M290 468Q246 468 227 420T208 261V209Q208 110 230 67T311 24T405 64T450 155L468 153Q449 67 398 29Q346 -10 255 -10Q139 -10 77 52T15 235T85 421T282 486Q371 486 418 452T465 365T443 289T381 265T317
286T293 348Q293 366 298 384H331Q338 404 338 420Q338 468 290 468Z" />
<glyph unicode="d" glyph-name="d" horiz-adv-x="588" d="M213 102T224 68T264 33T315 59T337 136V354Q337 397 320 427T270 457T225 413T213 259V207Q213 102 224 68ZM350 0L339 70Q305 -10 201 -10Q115 -10 68 52T20 237Q20 486 218 486Q306 486 334 437V732H273V750H523V18H572V0H350Z"
/>
<glyph unicode="e" glyph-name="e" horiz-adv-x="516" d="M144 -10T80 56T15 241T87 423T272 486Q499 486 490 258H208V219Q208 121 233 71T320 21Q436 21 472 145L490 142Q471 70 422 30T273 -10Q144 -10 80 56ZM209 278H312V327Q312 408 303 437T265 467T223
436T209 327V278Z" />
<glyph unicode="f" glyph-name="f" horiz-adv-x="383" d="M313 756Q275 756 263 728T251 636V476H383V458H251V18H373V0H10V18H65V458H7V476H65V480Q65 624 120 698T304 773Q389 773 426 740T463 662T440 596T379 574T321 593T300 638T306 688H344Q364 756 313 756Z" />
<glyph unicode="g" glyph-name="g" horiz-adv-x="522" d="M411 528L439 545Q445 576 415 576Q372 576 372 510Q372 484 379 450Q455 399 455 320T400 196T251 152Q212 152 170 160Q126 132 126 118T190 104H292Q519 104 519 -59Q519 -147 451 -198T237 -250Q-10
-250 -10 -143Q-10 -85 67 -63L127 -90Q119 -119 119 -145Q119 -231 247 -231Q325 -231 367 -202T409 -130T384 -73T282 -58H185Q104 -58 69 -31T34 35T59 101T148 167Q32 200 32 319Q32 394 86 440T248 486Q313 486 359 461Q353 488 353 510Q353 566 383 591T450
616T509 597T532 543T514 493T471 476T429 489T411 528ZM199 341V287Q199 220 210 196T245 172T279 195T290 292V341Q290 419 280 443T247 468T211 443T199 341Z" />
<glyph unicode="h" glyph-name="h" horiz-adv-x="616" d="M10 750H251V384Q267 430 300 458T400 486Q555 486 555 319V18H611V0H328V18H369V343Q369 403 361 420T332 438Q300 438 276 396T251 294V18H294V0H10V18H65V732H10V750Z" />
<glyph unicode="i" glyph-name="i" horiz-adv-x="317" d="M104 545T82 572T59 639T83 705T158 731T234 708T260 641T235 571T157 545ZM6 476H251V18H307V0H10V18H65V458H6V476Z" />
<glyph unicode="j" glyph-name="j" horiz-adv-x="311" d="M251 476V86Q251 -78 195 -164T10 -250Q-73 -250 -111 -217T-150 -140T-124 -73T-59 -49T-1 -70T19 -118T13 -168H-25Q-41 -195 -30 -214T12 -233T54 -199T65 -56V458H0V476H251ZM103 545T81 572T58 639T82
705T157 731T233 708T259 641T234 571T156 545Z" />
<glyph unicode="k" glyph-name="k" horiz-adv-x="620" d="M337 0V18H383L270 250L251 245V18H297V0H10V18H65V732H6V750H251V265L267 271L492 458H398V476H595V458H525L406 357L579 18H615V0H337Z" />
<glyph unicode="l" glyph-name="l" horiz-adv-x="316" d="M6 750H251V18H307V0H10V18H65V732H6V750Z" />
<glyph unicode="m" glyph-name="m" horiz-adv-x="888" d="M10 476H251V384Q284 486 396 486T533 378Q568 486 680 486Q827 486 827 319V18H883V0H606V18H641V343Q641 419 628 432Q622 438 612 438Q583 438 561 399T539 300V18H575V0H318V18H353V343Q353 419 340
432Q334 438 324 438Q296 438 274 396T251 294V18H287V0H10V18H65V458H10V476Z" />
<glyph unicode="n" glyph-name="n" horiz-adv-x="616" d="M12 476H253V384Q269 430 302 458T402 486Q557 486 557 319V18H613V0H330V18H371V343Q371 403 363 420T334 438Q302 438 278 396T253 294V18H296V0H12V18H67V458H12V476Z" />
<glyph unicode="o" glyph-name="o" horiz-adv-x="543" d="M333 197V282Q333 379 323 423T274 468Q252 468 239 456T219 414Q210 369 210 277V199Q210 90 216 68T230 32Q241 8 273 8Q312 8 324 53Q333 85 333 197ZM146 -10T82 54T18 237T86 421T279 486T464 427T525
245Q525 -10 271 -10Q146 -10 82 54Z" />
<glyph unicode="p" glyph-name="p" horiz-adv-x="588" d="M375 372T365 407T326 443T274 406T251 305V122Q251 79 268 49T318 19T363 63T375 217V269Q375 372 365 407ZM249 476V397Q288 486 387 486Q473 486 520 424T568 236T517 50T362 -10Q314 -10 290 2T251
39V-220H380V-238H10V-220H65V458H12V476H249Z" />
<glyph unicode="q" glyph-name="q" horiz-adv-x="588" d="M213 104T223 69T262 33T314 69T337 168V354Q337 397 320 427T271 457Q236 457 225 413T213 259V207Q213 104 223 69ZM337 -220V76Q299 -10 207 -10Q20 -10 20 239Q20 366 71 426T226 486Q309 486 343
423L350 476H578V458H523V-220H572V-238H235V-220H337Z" />
<glyph unicode="r" glyph-name="r" horiz-adv-x="495" d="M344 448Q307 448 279 400T251 286V18H322V0H10V18H65V458H10V476H251V380Q264 431 301 458T385 486T461 460T491 385T469 310T402 284T335 314T329 397H365Q390 448 344 448Z" />
<glyph unicode="s" glyph-name="s" horiz-adv-x="434" d="M33 -10V169H45Q71 82 115 47T225 12Q327 12 327 77Q327 105 302 119Q263 141 202 153Q134 171 88 201Q33 237 33 315T81 439T209 486Q258 486 310 463Q329 455 339 455T356 462T373 488H384V335H372Q321
465 214 465Q167 465 144 449T121 407Q121 392 128 384T139 371T152 363T167 356T185 349T204 344Q272 327 302 315T359 284Q414 246 414 162T364 34T227 -10Q165 -10 107 19Q95 27 88 27Q66 27 45 -10H33Z" />
<glyph unicode="t" glyph-name="t" horiz-adv-x="394" d="M60 143V458H5V476H60V605L246 651V476H376V458H246V121Q246 74 255 52T295 30T347 60T377 142L394 140Q386 71 350 31T231 -10T104 23T60 143Z" />
<glyph unicode="u" glyph-name="u" horiz-adv-x="605" d="M595 0H367L356 73Q340 33 309 12T215 -10Q60 -10 60 157V458H4V476H246V133Q246 73 254 54T288 35T334 66T354 152V458H308V476H540V18H595V0Z" />
<glyph unicode="v" glyph-name="v" horiz-adv-x="532" d="M0 458V476H299V458H236L356 126L464 458H397V476H532V458H488L340 0H226L41 458H0Z" />
<glyph unicode="w" glyph-name="w" horiz-adv-x="834" d="M352 458V476H610V458H569L659 121L748 458H679V476H814V458H772L652 0H515L428 307L334 0H200L52 458H7V476H310V458H250L342 118L414 352L389 458H352Z" />
<glyph unicode="x" glyph-name="x" horiz-adv-x="595" d="M367 295L485 458H413V476H562V458H510L380 274L543 18H595V0H261V18H332L222 198L108 18H174V0H17V18H83L210 218L58 458H0V476H338V458H268L367 295Z" />
<glyph unicode="y" glyph-name="y" horiz-adv-x="532" d="M5 458V476H295V458H241L350 126L466 458H399V476H540V458H490L303 -81Q270 -175 229 -212T129 -250T36 -223T2 -154T24 -90T82 -68Q165 -68 165 -137Q165 -152 159 -173H124Q116 -196 122 -211T149 -226Q190
-226 222 -186T283 -62L305 0H217L46 458H5Z" />
<glyph unicode="z" glyph-name="z" horiz-adv-x="520" d="M475 476V458L238 18H251Q335 18 383 62T458 205H472L456 0H36V15L277 458H266Q165 458 126 425T55 284H42L55 476H475Z" />
<glyph unicode="{" glyph-name="braceleft" horiz-adv-x="377" d="M24 324Q118 326 118 441Q118 482 104 552T89 643Q89 780 276 780Q333 780 368 767L363 751Q342 758 323 758Q269 758 269 693Q269 663 283 574T297 450Q297 381 259 353T127 319V317Q216 310
256 281T297 180Q297 149 283 54T269 -75Q269 -136 328 -136Q350 -136 372 -128L377 -144Q340 -160 291 -160Q89 -160 89 -15Q89 1 103 76T118 192Q118 306 24 308V324Z" />
<glyph unicode="|" glyph-name="bar" horiz-adv-x="319" d="M140 -127V795H179V-127H140Z" />
<glyph unicode="}" glyph-name="braceright" horiz-adv-x="377" d="M353 324V308Q259 306 259 192Q259 152 273 77T288 -15Q288 -160 86 -160Q37 -160 0 -144L5 -128Q27 -136 52 -136Q108 -136 108 -69Q108 -42 94 53T80 180Q80 251 120 280T250 317V319Q157 324
119 352T80 450Q80 484 94 573T108 693Q108 758 54 758Q35 758 14 751L9 767Q44 780 101 780Q288 780 288 643Q288 623 274 553T259 441Q259 326 353 324Z" />
<glyph unicode="~" glyph-name="asciitilde" horiz-adv-x="530" d="M179 398Q211 398 296 378T410 358T452 367T478 401L490 398Q464 299 441 268T376 237T255 257T144 278Q94 278 72 235L60 240Q78 316 104 357T179 398Z" />
<glyph unicode="&#xa0;" glyph-name="uni00A0" horiz-adv-x="180" />
<glyph unicode="&#xa1;" glyph-name="exclamdown" horiz-adv-x="377" d="M178 212V298H200V213Q200 127 235 10T270 -154Q270 -235 194 -235Q160 -235 137 -216T113 -154T145 7T178 212ZM151 335T131 356T111 410T129 464T185 486T243 465T263 408T242 354T186 335Z" />
<glyph unicode="&#xa2;" glyph-name="cent" horiz-adv-x="515" d="M312 511Q271 511 252 467T232 322V275Q232 186 254 147T331 108T419 144T460 228L479 224Q467 170 434 130Q391 75 279 75Q246 75 222 79L199 -26L171 -20L194 85Q54 125 54 296Q54 409 120 468T305
528H314L338 635L366 630L343 526Q407 519 441 488T476 410Q476 325 401 325T326 400Q326 417 331 433H362Q368 451 368 469T351 499T312 511Z" />
<glyph unicode="&#xa3;" glyph-name="sterling" horiz-adv-x="581" d="M36 298V326H113Q93 360 83 380T61 435T50 503Q50 602 121 656T307 711T477 668T534 558Q534 518 512 492T448 465T382 486T357 537T365 588H396Q402 604 402 622Q402 692 329 692Q274 692
260 657T245 530V326H421V298H245V268Q245 217 225 185T153 101L156 96Q251 160 302 160Q337 160 398 128T480 95T514 114T530 187L551 186Q547 90 510 36T421 -19T315 8L163 80Q157 35 133 12T77 -11T35 2T23 33Q23 64 53 85T131 108Q153 151 153 194T125 298H36Z"
/>
<glyph unicode="&#xa4;" glyph-name="currency" horiz-adv-x="530" d="M127 236Q99 277 99 334T128 436L51 525L70 543L160 472Q206 503 265 503T362 473L452 542L469 526L394 441Q422 399 422 345T392 243L467 145L449 128L355 205Q318 176 260 176T162 203L73
129L55 147L127 236ZM200 474T169 436T138 339T167 244T258 207T351 245T383 341T353 437T261 474Z" />
<glyph unicode="&#xa5;" glyph-name="yen" horiz-adv-x="609" d="M387 391L529 684H428V700H625V684H559L411 377H528V349H408V276H528V248H408V19H469V0H152V19H213V248H99V276H213V349H99V377H199L43 684H-4V700H316V684H251L387 391Z" />
<glyph unicode="&#xa6;" glyph-name="brokenbar" horiz-adv-x="319" d="M140 412V795H179V412H140ZM140 -127V310H179V-127H140Z" />
<glyph unicode="&#xa7;" glyph-name="section" horiz-adv-x="699" d="M70 559T157 635T358 711T526 673T580 568Q580 528 558 502T494 475T428 496T403 547T411 598L447 606Q453 622 453 642Q453 692 374 692Q306 692 280 634Q259 584 255 490Q341 472 403 449T516
388Q619 313 619 169T532 -51T331 -127T163 -89T109 16Q109 56 131 82T195 109T261 88T286 37T278 -14L242 -22Q236 -38 236 -58Q236 -108 315 -108Q381 -108 405 -57T433 94Q347 112 285 135T172 196Q70 270 70 414ZM434 155Q434 280 394 353T255 465V429Q255
304 295 231T434 118V155Z" />
<glyph unicode="&#xa8;" glyph-name="dieresis" horiz-adv-x="500" d="M291 587T291 618T310 670T364 691T419 673T440 619T421 564T364 543T309 565ZM98 587T98 618T117 670T171 691T226 673T247 619T228 564T171 543T116 565Z" />
<glyph unicode="&#xa9;" glyph-name="copyright" horiz-adv-x="781" d="M544 636T632 551T721 317T630 79T385 -11T146 76T60 310T155 546T397 636ZM531 12T613 93T696 316T612 536T393 614T172 532T86 309T166 90T389 12ZM501 436T473 466T412 496T366 461T352
321T365 178T415 140T480 171T524 247H536L532 128H522Q520 130 519 134T516 140Q512 143 508 143L473 132Q438 122 407 122Q314 122 261 170T208 315T263 463T411 514Q438 514 470 504T505 494T510 495T513 498T516 504T519 509H528L531 390H517Q501 436 473 466Z"
/>
<glyph unicode="&#xaa;" glyph-name="ordfeminine" horiz-adv-x="454" d="M205 568H227V623Q227 690 219 711T188 733Q152 733 152 708Q152 699 156 688H176Q182 670 182 651T163 616T114 600Q47 600 47 659Q47 747 209 747Q301 747 336 718T371 612V472Q371 435
393 435Q405 435 412 449T422 505L435 503Q433 441 411 418T337 394Q245 394 230 447Q221 420 201 407T142 394Q27 394 27 480Q27 531 71 549T205 568ZM182 426T194 426T216 444T227 491V553H222Q197 553 186 539T174 492V481Q174 447 178 437Z" />
<glyph unicode="&#xab;" glyph-name="guillemotleft" horiz-adv-x="494" d="M239 263L416 401L425 394L339 231L424 56L415 49L256 179Q226 205 226 223T239 263ZM63 263L240 401L249 394L163 231L248 56L239 49L80 179Q50 205 50 223T63 263Z" />
<glyph unicode="&#xac;" glyph-name="logicalnot" horiz-adv-x="530" d="M457 167V301H38V334H492V167H457Z" />
<glyph unicode="&#xad;" glyph-name="uni00AD" horiz-adv-x="340" d="M47 278V308H299V278H47Z" />
<glyph unicode="&#xae;" glyph-name="registered" horiz-adv-x="459" d="M317 662T368 613T419 480T366 344T226 292T89 342T40 476T94 610T233 662ZM305 314T349 358T394 478T348 597T230 641T112 596T66 475T109 357T228 314ZM226 482H223V395H231V387H132V395H154V571H132V579H236Q275
579 293 570T312 534Q312 492 248 487V486Q286 484 300 474T314 439V416Q314 400 323 400Q337 400 341 434L349 433Q346 407 335 396T295 384Q246 384 246 421V450Q246 469 242 475T226 482ZM223 571V492H226Q242 492 247 501T252 532T248 562T228 571H223Z" />
<glyph unicode="&#xaf;" glyph-name="overscore" horiz-adv-x="500" d="M114 552V647H386V552H114Z" />
<glyph unicode="&#xb0;" glyph-name="degree" horiz-adv-x="329" d="M76 668T76 627T99 561T164 535T230 561T254 628T230 694T164 719T100 694ZM103 506T72 539T40 625T73 712T166 747T257 715T289 630T256 541T163 506Z" />
<glyph unicode="&#xb1;" glyph-name="plusminus" horiz-adv-x="530" d="M492 301H280V112H242V301H38V334H242V510H280V334H492V301ZM492 0H38V33H492V0Z" />
<glyph unicode="&#xb2;" glyph-name="twosuperior" horiz-adv-x="417" d="M50 766T88 794T198 823T312 796T355 714T313 621T145 516L107 496H267Q310 496 327 514T353 571H368L361 394H57V478L121 529Q184 579 207 620T230 714T221 785T184 805T143 787T140 743H160Q165
728 165 710T150 678T108 664T66 681T50 724Q50 766 88 794Z" />
<glyph unicode="&#xb3;" glyph-name="threesuperior" horiz-adv-x="422" d="M203 819Q349 819 349 723Q349 684 316 659T221 623V622Q298 617 334 588T371 506T323 420T189 386Q49 386 49 474Q49 499 65 517T107 535T148 522T164 492T158 459H143Q137 447 137
434T151 412T187 402Q223 402 235 428T247 504T236 575T200 608Q183 605 146 600L144 618Q198 623 213 642T229 713T221 784T189 804Q146 804 146 768Q146 757 150 746H166Q172 730 172 714T156 684T113 670T73 686T58 728Q58 768 96 793T203 819Z" />
<glyph unicode="&#xb4;" glyph-name="acute" horiz-adv-x="500" d="M163 532L226 723L273 733Q304 740 320 726T337 687T308 636L174 525L163 532Z" />
<glyph unicode="&#xb5;" glyph-name="mu" horiz-adv-x="673" d="M268 501V158Q268 63 284 47Q293 39 308 39Q338 39 362 78T386 181V492L563 501V85Q563 42 592 42Q626 42 632 145L647 144Q643 56 614 23T524 -10T429 17T386 89Q370 45 337 17T265 -11T197 5T144
74L140 71L198 -71Q202 -81 210 -100T220 -126T227 -144Q234 -165 234 -182T214 -214T171 -223L80 -204V492L268 501Z" />
<glyph unicode="&#xb6;" glyph-name="paragraph" horiz-adv-x="628" d="M377 -82V175H358Q221 175 148 243T75 433T151 627T371 700H598V681H533V-13Q533 -250 285 -250Q193 -250 155 -212T117 -127T143 -55T208 -29T266 -50T286 -98T280 -148H251Q230 -185 241
-208T292 -231T354 -198T377 -82ZM407 -93Q407 -184 369 -218Q504 -188 504 -4V681H407V-93Z" />
<glyph unicode="&#xb7;" glyph-name="middot" horiz-adv-x="300" d="M113 235T92 260T70 322T92 384T156 409T221 388T245 325T223 259T157 235Z" />
<glyph unicode="&#xb8;" glyph-name="cedilla" horiz-adv-x="500" d="M244 13H270L230 -55Q251 -52 263 -52Q368 -52 368 -141Q368 -182 335 -213T232 -245Q186 -245 158 -227T129 -183T141 -146T172 -134Q206 -134 218 -172L192 -192Q192 -206 200 -217T226 -229T253
-212T262 -158T260 -106Q257 -70 230 -70Q216 -70 200 -74L197 -65L244 13Z" />
<glyph unicode="&#xb9;" glyph-name="onesuperior" horiz-adv-x="425" d="M160 791L88 783L86 802L230 821H301V413H369V394H91V413H160V791Z" />
<glyph unicode="&#xba;" glyph-name="ordmasculine" horiz-adv-x="489" d="M295 541V601Q295 667 286 698T246 729T204 698T194 598V542Q194 472 203 442T245 411T286 438T295 541ZM146 394T96 439T46 570T98 701T249 747Q443 747 443 575Q443 394 244 394Q146
394 96 439Z" />
<glyph unicode="&#xbb;" glyph-name="guillemotright" horiz-adv-x="494" d="M431 187L254 49L246 56L331 219L247 393L255 401L414 271Q444 245 444 227T431 187ZM255 187L78 49L70 56L155 219L71 393L79 401L238 271Q268 245 268 227T255 187Z" />
<glyph unicode="&#xbc;" glyph-name="onequarter" horiz-adv-x="820" d="M239 0L560 700H594L274 0H239ZM118 671L46 663L44 682L188 701H259V293H327V274H49V293H118V671ZM523 0V19H581V98H413V119L588 420H715V122H777V174H796V56H777V98H715V19H758V0H523ZM442
122H581V360L442 122Z" />
<glyph unicode="&#xbd;" glyph-name="onehalf" horiz-adv-x="820" d="M228 0L549 700H583L263 0H228ZM107 671L35 663L33 682L177 701H248V293H316V274H38V293H107V671ZM469 372T507 400T617 429T731 402T774 320T732 227T564 122L526 102H686Q729 102 746 120T772
177H787L780 0H476V84L540 135Q603 185 626 226T649 320T640 391T603 411T562 393T559 349H579Q584 334 584 316T569 284T527 270T485 287T469 330Q469 372 507 400Z" />
<glyph unicode="&#xbe;" glyph-name="threequarters" horiz-adv-x="820" d="M254 0L575 700H609L289 0H254ZM538 0V19H596V98H428V119L603 420H730V122H792V174H811V56H792V98H730V19H773V0H538ZM457 122H596V360L457 122ZM182 699Q328 699 328 603Q328 564 295
539T200 503V502Q277 497 313 468T350 386T302 300T168 266Q28 266 28 354Q28 379 44 397T86 415T127 402T143 372T137 339H122Q116 327 116 314T130 292T166 282Q202 282 214 308T226 384T215 455T179 488Q162 485 125 480L123 498Q177 503 192 522T208 593T200
664T168 684Q125 684 125 648Q125 637 129 626H145Q151 610 151 594T135 564T92 550T52 566T37 608Q37 648 75 673T182 699Z" />
<glyph unicode="&#xbf;" glyph-name="questiondown" horiz-adv-x="580" d="M526 -147T467 -191T299 -235T130 -193T70 -69Q70 -15 96 26T170 111L321 245V303H346V93Q346 76 335 65L273 2Q244 -27 233 -52T222 -119Q222 -216 312 -216Q355 -216 375 -193T395 -149T389
-112H357Q349 -91 349 -62T374 -11T440 11T503 -15T526 -82Q526 -147 467 -191ZM373 486T391 465T410 411T390 357T335 335T279 353T258 408T278 465T335 486Z" />
<glyph unicode="&#xc0;" glyph-name="Agrave" horiz-adv-x="694" d="M432 19L359 235H161L84 19H159V0H6V19H53L308 706H390L642 19H688V0H361V19H432ZM264 519L170 257H351L264 519ZM329 905L444 743L436 733L277 798Q233 816 233 856Q233 873 244 886T281 901L329 905Z" />
<glyph unicode="&#xc1;" glyph-name="Aacute" horiz-adv-x="694" d="M432 19L359 235H161L84 19H159V0H6V19H53L308 706H390L642 19H688V0H361V19H432ZM264 519L170 257H351L264 519ZM261 743L376 905L424 901Q449 899 460 886T472 856Q472 816 428 798L269 733L261 743Z" />
<glyph unicode="&#xc2;" glyph-name="Acircumflex" horiz-adv-x="694" d="M432 19L359 235H161L84 19H159V0H6V19H53L308 706H390L642 19H688V0H361V19H432ZM264 519L170 257H351L264 519ZM197 743L303 891Q331 907 358 907Q405 907 428 867L502 743L493 733L351
801L205 733L197 743Z" />
<glyph unicode="&#xc3;" glyph-name="Atilde" horiz-adv-x="694" d="M432 19L359 235H161L84 19H159V0H6V19H53L308 706H390L642 19H688V0H361V19H432ZM264 519L170 257H351L264 519ZM502 812T480 782T424 752T338 772T266 792Q228 792 211 751L199 755Q222 827
236 852T267 885T308 893T383 873T451 853Q495 853 509 895L522 891Q502 812 480 782Z" />
<glyph unicode="&#xc4;" glyph-name="Adieresis" horiz-adv-x="694" d="M432 19L359 235H161L84 19H159V0H6V19H53L308 706H390L642 19H688V0H361V19H432ZM264 519L170 257H351L264 519ZM371 790T371 821T390 873T444 894T499 876T520 822T501 767T444 746T389
768ZM178 790T178 821T197 873T251 894T306 876T327 822T308 767T251 746T196 768Z" />
<glyph unicode="&#xc5;" glyph-name="Aring" horiz-adv-x="694" d="M432 19L359 235H161L84 19H159V0H6V19H53L308 706H390L642 19H688V0H361V19H432ZM264 519L170 257H351L264 519ZM277 823Q277 750 349 750Q384 750 402 770T420 822T402 873T348 894T294 874T277
823ZM297 726T272 752T247 821T273 891T349 918T423 893T449 824T423 753T347 726Z" />
<glyph unicode="&#xc6;" glyph-name="AE" horiz-adv-x="1033" d="M376 678V700H950L960 502H942Q900 601 856 639T728 678H684V362H718Q765 362 797 397T842 493H857V197H840Q822 272 792 304T708 336H684V22H722Q814 22 878 77T967 218H987L979 0H430V22H489V339H279L85
19H160V0H6V19H53L452 678H376ZM483 678L291 363H489V678H483Z" />
<glyph unicode="&#xc7;" glyph-name="Ccedilla" horiz-adv-x="690" d="M400 691Q245 691 245 392V313Q245 171 286 91T407 10Q517 10 609 224H627L620 1H609Q603 12 598 16T583 21T516 7T405 -9L376 -59Q397 -56 409 -56Q514 -56 514 -145Q514 -186 481 -217T378
-249Q332 -249 304 -231T275 -187T287 -150T318 -138Q352 -138 364 -176L338 -196Q338 -210 346 -221T372 -233T399 -216T408 -162T406 -110Q403 -74 376 -74Q362 -74 346 -78L343 -69L378 -10Q217 -8 129 79T41 343T134 615T386 711Q447 711 505 696T574 680T589
684T600 700H611L619 483H601Q556 584 509 637T400 691Z" />
<glyph unicode="&#xc8;" glyph-name="Egrave" horiz-adv-x="624" d="M21 700H541L551 502H533Q491 603 445 640T310 678H275V369H309Q356 369 388 404T433 500H448V204H431Q413 279 383 311T299 343H275V22H313Q405 22 469 77T558 218H578L570 0H21V22H80V678H21V700ZM275
905L390 743L382 733L223 798Q179 816 179 856Q179 873 190 886T227 901L275 905Z" />
<glyph unicode="&#xc9;" glyph-name="Eacute" horiz-adv-x="624" d="M21 700H541L551 502H533Q491 603 445 640T310 678H275V369H309Q356 369 388 404T433 500H448V204H431Q413 279 383 311T299 343H275V22H313Q405 22 469 77T558 218H578L570 0H21V22H80V678H21V700ZM207
743L322 905L370 901Q395 899 406 886T418 856Q418 816 374 798L215 733L207 743Z" />
<glyph unicode="&#xca;" glyph-name="Ecircumflex" horiz-adv-x="624" d="M21 700H541L551 502H533Q491 603 445 640T310 678H275V369H309Q356 369 388 404T433 500H448V204H431Q413 279 383 311T299 343H275V22H313Q405 22 469 77T558 218H578L570 0H21V22H80V678H21V700ZM143
743L249 891Q277 907 304 907Q351 907 374 867L448 743L439 733L297 801L151 733L143 743Z" />
<glyph unicode="&#xcb;" glyph-name="Edieresis" horiz-adv-x="624" d="M21 700H541L551 502H533Q491 603 445 640T310 678H275V369H309Q356 369 388 404T433 500H448V204H431Q413 279 383 311T299 343H275V22H313Q405 22 469 77T558 218H578L570 0H21V22H80V678H21V700ZM317
790T317 821T336 873T390 894T445 876T466 822T447 767T390 746T335 768ZM124 790T124 821T143 873T197 894T252 876T273 822T254 767T197 746T142 768Z" />
<glyph unicode="&#xcc;" glyph-name="Igrave" horiz-adv-x="355" d="M25 700H330V681H275V19H330V0H25V19H80V681H25V700ZM157 905L272 743L264 733L105 798Q61 816 61 856Q61 873 72 886T109 901L157 905Z" />
<glyph unicode="&#xcd;" glyph-name="Iacute" horiz-adv-x="355" d="M25 700H330V681H275V19H330V0H25V19H80V681H25V700ZM89 743L204 905L252 901Q277 899 288 886T300 856Q300 816 256 798L97 733L89 743Z" />
<glyph unicode="&#xce;" glyph-name="Icircumflex" horiz-adv-x="355" d="M25 700H330V681H275V19H330V0H25V19H80V681H25V700ZM25 743L131 891Q159 907 186 907Q233 907 256 867L330 743L321 733L179 801L33 733L25 743Z" />
<glyph unicode="&#xcf;" glyph-name="Idieresis" horiz-adv-x="355" d="M25 700H330V681H275V19H330V0H25V19H80V681H25V700ZM199 790T199 821T218 873T272 894T327 876T348 822T329 767T272 746T217 768ZM6 790T6 821T25 873T79 894T134 876T155 822T136 767T79
746T24 768Z" />
<glyph unicode="&#xd0;" glyph-name="Eth" horiz-adv-x="763" d="M19 359V385H95V681H29V700H338Q530 700 626 622T722 362Q722 156 606 75Q499 0 312 0H29V19H95V359H19ZM290 19H328Q429 19 472 90T516 330V388Q516 613 430 659Q389 681 314 681H290V385H419V359H290V19Z"
/>
<glyph unicode="&#xd1;" glyph-name="Ntilde" horiz-adv-x="670" d="M590 681V0H450L107 647V19H162V0H25V19H80V681H25V700H301L563 198V681H508V700H645V681H590ZM495 812T473 782T417 752T331 772T259 792Q221 792 204 751L192 755Q215 827 229 852T260 885T301
893T376 873T444 853Q488 853 502 895L515 891Q495 812 473 782Z" />
<glyph unicode="&#xd2;" glyph-name="Ograve" horiz-adv-x="748" d="M501 309V383Q501 566 483 614Q463 669 426 682Q405 690 375 690T324 682T288 654T266 612T252 550Q246 492 246 379V307Q246 185 255 134T279 60Q310 11 375 11Q454 11 477 77T501 309ZM206
-10T124 80T41 342T129 612T380 711T624 618T707 352T624 85T373 -10ZM356 905L471 743L463 733L304 798Q260 816 260 856Q260 873 271 886T308 901L356 905Z" />
<glyph unicode="&#xd3;" glyph-name="Oacute" horiz-adv-x="748" d="M501 309V383Q501 566 483 614Q463 669 426 682Q405 690 375 690T324 682T288 654T266 612T252 550Q246 492 246 379V307Q246 185 255 134T279 60Q310 11 375 11Q454 11 477 77T501 309ZM206
-10T124 80T41 342T129 612T380 711T624 618T707 352T624 85T373 -10ZM288 743L403 905L451 901Q476 899 487 886T499 856Q499 816 455 798L296 733L288 743Z" />
<glyph unicode="&#xd4;" glyph-name="Ocircumflex" horiz-adv-x="748" d="M501 309V383Q501 566 483 614Q463 669 426 682Q405 690 375 690T324 682T288 654T266 612T252 550Q246 492 246 379V307Q246 185 255 134T279 60Q310 11 375 11Q454 11 477 77T501 309ZM206
-10T124 80T41 342T129 612T380 711T624 618T707 352T624 85T373 -10ZM224 743L330 891Q358 907 385 907Q432 907 455 867L529 743L520 733L378 801L232 733L224 743Z" />
<glyph unicode="&#xd5;" glyph-name="Otilde" horiz-adv-x="748" d="M501 309V383Q501 566 483 614Q463 669 426 682Q405 690 375 690T324 682T288 654T266 612T252 550Q246 492 246 379V307Q246 185 255 134T279 60Q310 11 375 11Q454 11 477 77T501 309ZM206
-10T124 80T41 342T129 612T380 711T624 618T707 352T624 85T373 -10ZM529 812T507 782T451 752T365 772T293 792Q255 792 238 751L226 755Q249 827 263 852T294 885T335 893T410 873T478 853Q522 853 536 895L549 891Q529 812 507 782Z" />
<glyph unicode="&#xd6;" glyph-name="Odieresis" horiz-adv-x="748" d="M501 309V383Q501 566 483 614Q463 669 426 682Q405 690 375 690T324 682T288 654T266 612T252 550Q246 492 246 379V307Q246 185 255 134T279 60Q310 11 375 11Q454 11 477 77T501 309ZM206
-10T124 80T41 342T129 612T380 711T624 618T707 352T624 85T373 -10ZM398 790T398 821T417 873T471 894T526 876T547 822T528 767T471 746T416 768ZM205 790T205 821T224 873T278 894T333 876T354 822T335 767T278 746T223 768Z" />
<glyph unicode="&#xd7;" glyph-name="multiply" horiz-adv-x="530" d="M437 464L287 315L435 167L411 144L264 291L116 143L92 167L240 315L93 463L116 487L264 339L413 488L437 464Z" />
<glyph unicode="&#xd8;" glyph-name="Oslash" horiz-adv-x="748" d="M41 339Q41 514 129 612T383 711Q442 711 488 698L515 769L540 759L514 690Q707 622 707 352Q707 180 624 85T371 -10Q308 -10 254 4L225 -74L200 -64L229 12Q41 80 41 339ZM501 309V383Q501
552 484 610L277 64Q306 11 380 11T477 77T501 309ZM246 307Q246 158 262 101L468 645Q441 690 375 690Q313 690 288 654Q260 613 254 562Q246 492 246 379V307Z" />
<glyph unicode="&#xd9;" glyph-name="Ugrave" horiz-adv-x="683" d="M271 121T302 72T416 23T542 74T586 229V681H521V700H667V681H612V236Q612 112 557 51T363 -10T150 48T76 247V681H21V700H336V681H271V213Q271 121 302 72ZM350 905L465 743L457 733L298 798Q254
816 254 856Q254 873 265 886T302 901L350 905Z" />
<glyph unicode="&#xda;" glyph-name="Uacute" horiz-adv-x="683" d="M271 121T302 72T416 23T542 74T586 229V681H521V700H667V681H612V236Q612 112 557 51T363 -10T150 48T76 247V681H21V700H336V681H271V213Q271 121 302 72ZM282 743L397 905L445 901Q470 899
481 886T493 856Q493 816 449 798L290 733L282 743Z" />
<glyph unicode="&#xdb;" glyph-name="Ucircumflex" horiz-adv-x="683" d="M271 121T302 72T416 23T542 74T586 229V681H521V700H667V681H612V236Q612 112 557 51T363 -10T150 48T76 247V681H21V700H336V681H271V213Q271 121 302 72ZM218 743L324 891Q352 907 379
907Q426 907 449 867L523 743L514 733L372 801L226 733L218 743Z" />
<glyph unicode="&#xdc;" glyph-name="Udieresis" horiz-adv-x="683" d="M271 121T302 72T416 23T542 74T586 229V681H521V700H667V681H612V236Q612 112 557 51T363 -10T150 48T76 247V681H21V700H336V681H271V213Q271 121 302 72ZM392 790T392 821T411 873T465
894T520 876T541 822T522 767T465 746T410 768ZM199 790T199 821T218 873T272 894T327 876T348 822T329 767T272 746T217 768Z" />
<glyph unicode="&#xdd;" glyph-name="Yacute" horiz-adv-x="641" d="M397 371L539 684H438V700H635V684H569L418 350V19H479V0H162V19H223V331L53 684H6V700H326V684H261L397 371ZM261 743L376 905L424 901Q449 899 460 886T472 856Q472 816 428 798L269 733L261 743Z" />
<glyph unicode="&#xde;" glyph-name="Thorn" horiz-adv-x="634" d="M275 681V566H309Q460 566 534 523T608 367Q608 243 518 196Q434 153 283 153H275V19H400V0H15V19H80V681H15V700H400V681H275ZM275 547V172H296Q356 172 379 213T402 346V394Q402 479 381 513T302
547H275Z" />
<glyph unicode="&#xdf;" glyph-name="germandbls" horiz-adv-x="674" d="M307 -10V169H319Q369 12 480 12Q572 12 572 78Q572 109 546 129T483 162T408 193T344 248T318 333T336 416T381 478T434 529Q497 590 497 643T463 724T364 751T275 712T251 604V0H-11V18H65V469Q65
634 141 703T353 773Q447 773 486 737T526 649Q526 613 508 580T468 526T428 480T409 431T427 391T474 364T534 338T594 304T640 248T659 161Q659 85 609 38T495 -10T381 19Q360 31 350 31Q328 31 319 -10H307Z" />
<glyph unicode="&#xe0;" glyph-name="agrave" horiz-adv-x="549" d="M250 235H279V312Q279 407 269 439T228 472Q210 472 196 463T181 437T187 403H212Q220 382 220 353T195 302T132 280Q46 280 46 363Q46 486 255 486Q374 486 419 446T465 297V94Q465 42 494
42Q528 42 534 145L549 144Q545 56 516 23T421 -10Q301 -10 283 64Q270 26 244 8T168 -10Q20 -10 20 111Q20 182 76 208T250 235ZM210 60T215 45T236 30T265 55T279 126V219H272Q210 219 210 128V112Q210 60 215 45ZM263 738L326 547L315 540L181 651Q152 677 152
701T168 740T216 748L263 738Z" />
<glyph unicode="&#xe1;" glyph-name="aacute" horiz-adv-x="549" d="M250 235H279V312Q279 407 269 439T228 472Q210 472 196 463T181 437T187 403H212Q220 382 220 353T195 302T132 280Q46 280 46 363Q46 486 255 486Q374 486 419 446T465 297V94Q465 42 494
42Q528 42 534 145L549 144Q545 56 516 23T421 -10Q301 -10 283 64Q270 26 244 8T168 -10Q20 -10 20 111Q20 182 76 208T250 235ZM210 60T215 45T236 30T265 55T279 126V219H272Q210 219 210 128V112Q210 60 215 45ZM188 547L251 738L298 748Q329 755 345 741T362
702T333 651L199 540L188 547Z" />
<glyph unicode="&#xe2;" glyph-name="acircumflex" horiz-adv-x="549" d="M250 235H279V312Q279 407 269 439T228 472Q210 472 196 463T181 437T187 403H212Q220 382 220 353T195 302T132 280Q46 280 46 363Q46 486 255 486Q374 486 419 446T465 297V94Q465 42
494 42Q528 42 534 145L549 144Q545 56 516 23T421 -10Q301 -10 283 64Q270 26 244 8T168 -10Q20 -10 20 111Q20 182 76 208T250 235ZM210 60T215 45T236 30T265 55T279 126V219H272Q210 219 210 128V112Q210 60 215 45ZM121 532L210 722Q240 738 269 738Q314 738
333 690L394 531L383 524L258 628L133 523L121 532Z" />
<glyph unicode="&#xe3;" glyph-name="atilde" horiz-adv-x="549" d="M250 235H279V312Q279 407 269 439T228 472Q210 472 196 463T181 437T187 403H212Q220 382 220 353T195 302T132 280Q46 280 46 363Q46 486 255 486Q374 486 419 446T465 297V94Q465 42 494
42Q528 42 534 145L549 144Q545 56 516 23T421 -10Q301 -10 283 64Q270 26 244 8T168 -10Q20 -10 20 111Q20 182 76 208T250 235ZM210 60T215 45T236 30T265 55T279 126V219H272Q210 219 210 128V112Q210 60 215 45ZM433 710Q395 563 326 563Q292 563 239 583T167
603Q129 603 112 562L100 566Q123 641 148 676T217 712Q244 712 294 692T362 672Q406 672 420 714L433 710Z" />
<glyph unicode="&#xe4;" glyph-name="adieresis" horiz-adv-x="549" d="M250 235H279V312Q279 407 269 439T228 472Q210 472 196 463T181 437T187 403H212Q220 382 220 353T195 302T132 280Q46 280 46 363Q46 486 255 486Q374 486 419 446T465 297V94Q465 42 494
42Q528 42 534 145L549 144Q545 56 516 23T421 -10Q301 -10 283 64Q270 26 244 8T168 -10Q20 -10 20 111Q20 182 76 208T250 235ZM210 60T215 45T236 30T265 55T279 126V219H272Q210 219 210 128V112Q210 60 215 45ZM535 602T535 633T554 685T608 706T663 688T684
634T665 579T608 558T553 580ZM342 602T342 633T361 685T415 706T470 688T491 634T472 579T415 558T360 580Z" />
<glyph unicode="&#xe5;" glyph-name="aring" horiz-adv-x="549" d="M250 235H279V312Q279 407 269 439T228 472Q210 472 196 463T181 437T187 403H212Q220 382 220 353T195 302T132 280Q46 280 46 363Q46 486 255 486Q374 486 419 446T465 297V94Q465 42 494 42Q528
42 534 145L549 144Q545 56 516 23T421 -10Q301 -10 283 64Q270 26 244 8T168 -10Q20 -10 20 111Q20 182 76 208T250 235ZM210 60T215 45T236 30T265 55T279 126V219H272Q210 219 210 128V112Q210 60 215 45ZM186 632Q186 559 258 559Q293 559 311 579T329 631T311
682T257 703T203 683T186 632ZM206 535T181 561T156 630T182 700T258 727T332 702T358 633T332 562T256 535Z" />
<glyph unicode="&#xe6;" glyph-name="ae" horiz-adv-x="772" d="M279 235V312Q279 407 269 439T228 472Q210 472 196 463T181 437T187 403H212Q220 382 220 353T195 302T132 280Q46 280 46 363Q46 424 98 455T237 486Q346 486 389 423Q436 486 541 486Q755 486
746 258H464V219Q464 121 489 71T576 21Q692 21 728 145L746 142Q727 70 678 30T529 -10Q390 -10 328 70Q294 -10 173 -10Q20 -10 20 111Q20 182 76 208T250 235H279ZM465 278H568V327Q568 408 559 437T521 467T479 436T465 327V278ZM210 62T219 46T247 30T285
44T314 89Q282 141 279 218V219H272Q210 219 210 128V112Q210 62 219 46Z" />
<glyph unicode="&#xe7;" glyph-name="ccedilla" horiz-adv-x="483" d="M290 468Q246 468 227 420T208 261V209Q208 110 230 67T311 24T405 64T450 155L468 153Q449 71 406 34Q361 -3 281 -9L254 -55Q275 -52 287 -52Q392 -52 392 -141Q392 -182 359 -213T256 -245Q210
-245 182 -227T153 -183T165 -146T196 -134Q230 -134 242 -172L216 -192Q216 -206 224 -217T250 -229T277 -212T286 -158T284 -106Q281 -70 254 -70Q240 -70 224 -74L221 -65L254 -10Q138 -9 77 53T15 235T85 421T282 486Q371 486 418 452T465 365T443 289T381
265T317 286T293 348Q293 366 298 384H331Q338 404 338 420Q338 468 290 468Z" />
<glyph unicode="&#xe8;" glyph-name="egrave" horiz-adv-x="516" d="M144 -10T80 56T15 241T87 423T272 486Q499 486 490 258H208V219Q208 121 233 71T320 21Q436 21 472 145L490 142Q471 70 422 30T273 -10Q144 -10 80 56ZM209 278H312V327Q312 408 303 437T265
467T223 436T209 327V278ZM273 738L336 547L325 540L191 651Q162 677 162 701T178 740T226 748L273 738Z" />
<glyph unicode="&#xe9;" glyph-name="eacute" horiz-adv-x="516" d="M144 -10T80 56T15 241T87 423T272 486Q499 486 490 258H208V219Q208 121 233 71T320 21Q436 21 472 145L490 142Q471 70 422 30T273 -10Q144 -10 80 56ZM312 278V327Q312 408 303 437T265 467T223
436T209 327V278H312ZM198 547L261 738L308 748Q339 755 355 741T372 702T343 651L209 540L198 547Z" />
<glyph unicode="&#xea;" glyph-name="ecircumflex" horiz-adv-x="516" d="M144 -10T80 56T15 241T87 423T272 486Q499 486 490 258H208V219Q208 121 233 71T320 21Q436 21 472 145L490 142Q471 70 422 30T273 -10Q144 -10 80 56ZM209 278H312V327Q312 408 303
437T265 467T223 436T209 327V278ZM131 532L220 722Q250 738 279 738Q324 738 343 690L404 531L393 524L268 628L143 523L131 532Z" />
<glyph unicode="&#xeb;" glyph-name="edieresis" horiz-adv-x="516" d="M144 -10T80 56T15 241T87 423T272 486Q499 486 490 258H208V219Q208 121 233 71T320 21Q436 21 472 145L490 142Q471 70 422 30T273 -10Q144 -10 80 56ZM209 278H312V327Q312 408 303 437T265
467T223 436T209 327V278ZM289 602T289 633T308 685T362 706T417 688T438 634T419 579T362 558T307 580ZM96 602T96 633T115 685T169 706T224 688T245 634T226 579T169 558T114 580Z" />
<glyph unicode="&#xec;" glyph-name="igrave" horiz-adv-x="317" d="M147 738L210 547L199 540L65 651Q36 677 36 701T52 740T100 748L147 738ZM6 476H251V18H307V0H10V18H65V458H6V476Z" />
<glyph unicode="&#xed;" glyph-name="iacute" horiz-adv-x="317" d="M85 547L148 738L195 748Q226 755 242 741T259 702T230 651L96 540L85 547ZM6 476H251V18H307V0H10V18H65V458H6V476Z" />
<glyph unicode="&#xee;" glyph-name="icircumflex" horiz-adv-x="317" d="M6 476H251V18H307V0H10V18H65V458H6V476ZM4 532L93 722Q123 738 152 738Q197 738 216 690L277 531L266 524L141 628L16 523L4 532Z" />
<glyph unicode="&#xef;" glyph-name="idieresis" horiz-adv-x="317" d="M169 602T169 633T188 685T242 706T297 688T318 634T299 579T242 558T187 580ZM-24 602T-24 633T-5 685T49 706T104 688T125 634T106 579T49 558T-6 580ZM6 476H251V18H307V0H10V18H65V458H6V476Z" />
<glyph unicode="&#xf0;" glyph-name="eth" horiz-adv-x="560" d="M195 575L187 600L293 669Q227 750 89 749L91 765Q261 778 367 718L473 788L481 763L390 703Q540 598 540 332Q540 142 466 60Q438 29 390 10T278 -10Q150 -10 85 53T20 237T81 426T249 494Q332
494 360 431Q352 579 307 649L195 575ZM344 197V282Q344 376 332 422T280 468T226 422T213 277V199Q213 99 225 54T279 8T332 49T344 197Z" />
<glyph unicode="&#xf1;" glyph-name="ntilde" horiz-adv-x="616" d="M10 476H251V384Q267 430 300 458T400 486Q555 486 555 319V18H611V0H328V18H369V343Q369 403 361 420T332 438Q300 438 276 396T251 294V18H294V0H10V18H65V458H10V476ZM481 710Q443 563 374
563Q340 563 287 583T215 603Q177 603 160 562L148 566Q171 641 196 676T265 712Q292 712 342 692T410 672Q454 672 468 714L481 710Z" />
<glyph unicode="&#xf2;" glyph-name="ograve" horiz-adv-x="543" d="M333 197V282Q333 379 323 423T274 468Q252 468 239 456T219 414Q210 369 210 277V199Q210 90 216 68T230 32Q241 8 273 8Q312 8 324 53Q333 85 333 197ZM146 -10T82 54T18 237T86 421T279 486T464
427T525 245Q525 -10 271 -10Q146 -10 82 54ZM280 738L343 547L332 540L198 651Q169 677 169 701T185 740T233 748L280 738Z" />
<glyph unicode="&#xf3;" glyph-name="oacute" horiz-adv-x="543" d="M333 197V282Q333 379 323 423T274 468Q252 468 239 456T219 414Q210 369 210 277V199Q210 90 216 68T230 32Q241 8 273 8Q312 8 324 53Q333 85 333 197ZM146 -10T82 54T18 237T86 421T279 486T464
427T525 245Q525 -10 271 -10Q146 -10 82 54ZM205 547L268 738L315 748Q346 755 362 741T379 702T350 651L216 540L205 547Z" />
<glyph unicode="&#xf4;" glyph-name="ocircumflex" horiz-adv-x="543" d="M333 197V282Q333 379 323 423T274 468Q252 468 239 456T219 414Q210 369 210 277V199Q210 90 216 68T230 32Q241 8 273 8Q312 8 324 53Q333 85 333 197ZM146 -10T82 54T18 237T86 421T279
486T464 427T525 245Q525 -10 271 -10Q146 -10 82 54ZM138 532L227 722Q257 738 286 738Q331 738 350 690L411 531L400 524L275 628L150 523L138 532Z" />
<glyph unicode="&#xf5;" glyph-name="otilde" horiz-adv-x="543" d="M333 197V282Q333 379 323 423T274 468Q252 468 239 456T219 414Q210 369 210 277V199Q210 90 216 68T230 32Q241 8 273 8Q312 8 324 53Q333 85 333 197ZM146 -10T82 54T18 237T86 421T279 486T464
427T525 245Q525 -10 271 -10Q146 -10 82 54ZM450 710Q412 563 342 563Q309 563 256 583T184 603Q146 603 129 562L117 566Q140 641 165 676T234 712Q261 712 311 692T379 672Q423 672 437 714L450 710Z" />
<glyph unicode="&#xf6;" glyph-name="odieresis" horiz-adv-x="543" d="M333 197V282Q333 379 323 423T274 468Q252 468 239 456T219 414Q210 369 210 277V199Q210 90 216 68T230 32Q241 8 273 8Q312 8 324 53Q333 85 333 197ZM146 -10T82 54T18 237T86 421T279
486T464 427T525 245Q525 -10 271 -10Q146 -10 82 54ZM296 602T296 633T315 685T369 706T424 688T445 634T426 579T369 558T314 580ZM103 602T103 633T122 685T176 706T231 688T252 634T233 579T176 558T121 580Z" />
<glyph unicode="&#xf7;" glyph-name="divide" horiz-adv-x="530" d="M213 422T213 446T227 485T268 501T309 488T325 448T311 406T268 390T227 406ZM213 168T213 192T227 231T268 247T309 234T325 194T311 152T268 136T227 152ZM492 301H38V334H492V301Z" />
<glyph unicode="&#xf8;" glyph-name="oslash" horiz-adv-x="546" d="M15 236Q15 359 82 422T279 486Q311 486 344 481L370 550L392 542L367 477Q531 439 531 245Q531 -10 273 -10Q225 -10 186 -1L158 -75L136 -67L163 5Q15 53 15 236ZM339 197V282Q339 352 334
389L215 75Q227 8 275 8Q315 8 327 49T339 197ZM208 199Q208 148 209 127L324 429Q308 468 276 468Q234 468 221 422T208 277V199Z" />
<glyph unicode="&#xf9;" glyph-name="ugrave" horiz-adv-x="605" d="M595 0H367L356 73Q340 33 309 12T215 -10Q60 -10 60 157V458H4V476H246V133Q246 73 254 54T288 35T334 66T354 152V458H308V476H540V18H595V0ZM289 738L352 547L341 540L207 651Q178 677 178
701T194 740T242 748L289 738Z" />
<glyph unicode="&#xfa;" glyph-name="uacute" horiz-adv-x="605" d="M595 0H367L356 73Q340 33 309 12T215 -10Q60 -10 60 157V458H4V476H246V133Q246 73 254 54T288 35T334 66T354 152V458H308V476H540V18H595V0ZM223 547L286 738L333 748Q364 755 380 741T397
702T368 651L234 540L223 547Z" />
<glyph unicode="&#xfb;" glyph-name="ucircumflex" horiz-adv-x="605" d="M595 0H367L356 73Q340 33 309 12T215 -10Q60 -10 60 157V458H4V476H246V133Q246 73 254 54T288 35T334 66T354 152V458H308V476H540V18H595V0ZM156 532L245 722Q275 738 304 738Q349 738
368 690L429 531L418 524L293 628L168 523L156 532Z" />
<glyph unicode="&#xfc;" glyph-name="udieresis" horiz-adv-x="605" d="M595 0H367L356 73Q340 33 309 12T215 -10Q60 -10 60 157V458H4V476H246V133Q246 73 254 54T288 35T334 66T354 152V458H308V476H540V18H595V0ZM314 602T314 633T333 685T387 706T442 688T463
634T444 579T387 558T332 580ZM121 602T121 633T140 685T194 706T249 688T270 634T251 579T194 558T139 580Z" />
<glyph unicode="&#xfd;" glyph-name="yacute" horiz-adv-x="532" d="M5 458V476H295V458H241L350 126L466 458H399V476H540V458H490L303 -81Q270 -175 229 -212T129 -250T36 -223T2 -154T24 -90T82 -68Q165 -68 165 -137Q165 -152 159 -173H124Q116 -196 122 -211T149
-226Q190 -226 222 -186T283 -62L305 0H217L46 458H5ZM231 547L294 738L341 748Q372 755 388 741T405 702T376 651L242 540L231 547Z" />
<glyph unicode="&#xfe;" glyph-name="thorn" horiz-adv-x="588" d="M375 372T365 407T326 443T274 407T251 308V122Q251 79 268 49T318 19T363 63T375 217V269Q375 372 365 407ZM65 -220V732H16V750H251V400Q289 486 381 486Q568 486 568 237Q568 110 517 50T362
-10Q314 -10 290 2T251 39V-220H380V-238H10V-220H65Z" />
<glyph unicode="&#xff;" glyph-name="ydieresis" horiz-adv-x="532" d="M5 458V476H295V458H241L350 126L466 458H399V476H540V458H490L303 -81Q270 -175 229 -212T129 -250T36 -223T2 -154T24 -90T82 -68Q165 -68 165 -137Q165 -152 159 -173H124Q116 -196 122
-211T149 -226Q190 -226 222 -186T283 -62L305 0H217L46 458H5ZM322 602T322 633T341 685T395 706T450 688T471 634T452 579T395 558T340 580ZM129 602T129 633T148 685T202 706T257 688T278 634T259 579T202 558T147 580Z" />
<glyph unicode="&#x2013;" glyph-name="endash" horiz-adv-x="500" d="M20 272V299H480V272H20Z" />
<glyph unicode="&#x2014;" glyph-name="emdash" horiz-adv-x="1000" d="M20 272V299H980V272H20Z" />
<glyph unicode="&#x2018;" glyph-name="quoteleft" horiz-adv-x="260" d="M177 755L186 741Q93 680 93 619Q93 588 120 583L162 622Q182 615 198 597T215 549T192 500T132 479T70 504T45 575Q45 673 177 755Z" />
<glyph unicode="&#x2019;" glyph-name="quoteright" horiz-adv-x="260" d="M83 452L74 466Q167 527 167 588Q167 620 140 624L98 585Q78 592 62 610T45 658T68 707T128 728T190 703T215 632Q215 534 83 452Z" />
<glyph unicode="&#x201a;" glyph-name="quotesinglbase" horiz-adv-x="260" d="M83 -147L74 -133Q167 -72 167 -11Q167 20 140 25L98 -14Q78 -7 62 11T45 59T68 108T128 129T190 104T215 33Q215 -65 83 -147Z" />
<glyph unicode="&#x201c;" glyph-name="quotedblleft" horiz-adv-x="448" d="M365 755L374 741Q281 680 281 619Q281 588 308 583L350 622Q370 615 386 597T403 549T380 500T320 479T258 504T233 575Q233 673 365 755ZM177 755L186 741Q93 680 93 619Q93 588 120
583L162 622Q182 615 198 597T215 549T192 500T132 479T70 504T45 575Q45 673 177 755Z" />
<glyph unicode="&#x201d;" glyph-name="quotedblright" horiz-adv-x="445" d="M268 452L259 466Q352 527 352 588Q352 620 325 624L283 585Q263 592 247 610T230 658T253 707T313 728T375 703T400 632Q400 534 268 452ZM83 452L74 466Q167 527 167 588Q167 620
140 624L98 585Q78 592 62 610T45 658T68 707T128 728T190 703T215 632Q215 534 83 452Z" />
<glyph unicode="&#x201e;" glyph-name="quotedblbase" horiz-adv-x="445" d="M268 -147L259 -133Q352 -72 352 -11Q352 20 325 25L283 -14Q263 -7 247 11T230 59T253 108T313 129T375 104T400 33Q400 -65 268 -147ZM83 -147L74 -133Q167 -72 167 -11Q167 20 140
25L98 -14Q78 -7 62 11T45 59T68 108T128 129T190 104T215 33Q215 -65 83 -147Z" />
<glyph unicode="&#x2022;" glyph-name="bullet" horiz-adv-x="400" d="M138 151T107 188T76 281T110 372T204 409T299 377T335 284T302 187T203 151Z" />
<glyph unicode="&#x2039;" glyph-name="guilsinglleft" horiz-adv-x="318" d="M63 263L240 401L249 394L163 231L248 56L239 49L80 179Q50 205 50 223T63 263Z" />
<glyph unicode="&#x203a;" glyph-name="guilsinglright" horiz-adv-x="318" d="M255 187L78 49L70 56L155 219L71 393L79 401L238 271Q268 245 268 227T255 187Z" />
</font>
</defs>
</svg>
